#TITLE:NaiNai 69;
#SUBTITLE:~D-turbo original~;
#ARTIST:dj Sharpnel;
#TITLETRANSLIT:;
#SUBTITLETRANSLIT:;
#ARTISTTRANSLIT:;
#CREDIT:;
#BANNER:banner.jpg.jpg;
#BACKGROUND:bg copiar.jpg;
#LYRICSPATH:;
#CDTITLE:dtittle.png;
#MUSIC:DJ Sharpnel - Endless Summer - 09 - Nainai 69.mp3;
#OFFSET:0.500;
#SAMPLESTART:29.503;
#SAMPLELENGTH:25.940;
#SELECTABLE:YES;
#BPMS:0.000=265.920,433.000=265.920,514.500=265.920,542.250=265.920;
#STOPS:;
#BGCHANGES:692.500=UnderstyleBG.jpg=1.000=1=0=1,
99999=-nosongbg-=1.000=0=0=0 // don't automatically add -songbackground-
;
// cache tags:
#FIRSTBEAT:2.500;
#LASTBEAT:596.500;
#SONGFILENAME:Songs/Chilean Keyboard Megapack 3/(D-turbo) NaiNai69/nainai69.sm;
#HASMUSIC:1;
#HASBANNER:1;
#MUSICLENGTH:135.262;
// end cache tags

//---------------dance-single - asd----------------
#NOTES:
     dance-single:
     asd:
     Challenge:
     12:
     1.000,1.000,1.000,0.185,0.200,1024.000,303.000,25.000,0.000,0.000:
0000
0000
0000
0000
0000
0010
0100
1000
,
0001
0100
0010
1000
0100
0001
0010
0100
,
1000
0000
0010
0000
0100
0000
0001
0100
0010
1000
0100
0000
0010
0000
1000
0000
,
0010
0100
0001
0010
0100
1000
0001
0100
,
0010
0000
1000
0000
0010
0000
1000
0100
0001
0010
0100
0000
0010
0000
0001
0000
,
0010
0100
1000
0001
0010
0100
1000
0100
,
0001
0000
0100
0000
0010
0000
1000
0100
0001
0100
0010
0000
0100
0000
1000
0000
,
0010
0100
0001
0010
1000
0010
0100
0001
,
0010
0000
1000
0000
0010
0000
0100
0010
0001
0100
0010
0000
1000
0000
0010
0000
,
0001
0100
0010
1000
0100
0010
0001
0100
,
0010
0000
0100
0000
0001
0000
1000
0100
0010
0001
0100
0000
0001
0000
0010
0000
,
1000
0010
0100
0001
1000
0010
0100
0001
,
1000
0000
0001
0000
0010
0000
1000
0100
0010
1000
0100
0000
0010
0000
0001
0000
,
0100
0010
1000
0001
0010
0100
1000
0001
,
0100
0000
0010
0000
1000
0000
0010
1000
0100
0010
0001
0000
0010
0000
1000
0000
,
0001
0100
0010
1000
0010
0100
0001
0010
,
0100
0000
1000
0000
0010
0000
0100
0010
0001
0100
0010
0000
0100
0000
1000
0000
,
0001
0100
0010
1000
0001
0100
0010
1000
,
0100
1001
0000
0000
0000
1001
0000
1001
,
0000
1001
0000
1001
0000
1001
0000
1001
,
0000
0110
0110
0110
0110
0110
0000
0110
,
0000
0110
0000
0110
0000
0110
0000
0110
,
1001
0110
1010
0101
0110
1001
0000
0110
,
0000
0110
0000
1100
0000
0101
0000
0011
,
0110
0110
1100
1010
0000
0101
0000
1100
,
0000
0011
0000
1100
0000
0110
0000
0101
,
0000
1100
0000
0000
0000
1001
0100
0011
,
1000
0000
0011
0000
0100
0000
2020
3030
0001
0000
1100
0000
0010
0000
1001
0000
,
0001
0000
0110
0000
0010
0000
2002
3003
0100
0000
1001
0000
0010
0000
0101
0000
,
1000
0000
0011
0000
0100
0000
2002
3003
0010
0000
1001
0000
0010
0000
1100
0000
,
0001
0000
0110
0000
1000
0000
0022
0033
0100
0000
1010
0000
1000
0000
0110
0000
,
0001
0000
0110
0000
1000
0000
0022
0033
0100
0000
1001
0000
0010
0000
1001
0000
,
0010
0000
1100
0000
0001
0000
0220
0330
0010
0000
1001
0000
0010
0000
0110
0000
,
0001
0000
0110
0000
1000
0000
0011
0000
0100
0000
2002
3003
0100
0000
0110
0000
,
0100
0010
1000
0000
0000
0010
1000
0001
,
0100
0010
1000
0100
0010
0001
0010
0100
,
1000
0100
0010
1000
0010
0100
0001
0010
,
1000
0100
0010
0100
0001
0100
1000
0010
,
0100
0001
0010
1000
0010
0100
0001
1000
,
0010
0100
1000
0010
0100
0001
0010
1000
,
0010
0100
0001
0010
1000
0100
0010
0001
,
0100
0010
1000
0001
0100
0010
1000
0010
,
0100
0001
0010
1000
0010
1100
0001
1010
,
1000
0011
0100
0011
1000
0110
0100
1001
,
0100
0011
1000
0110
0100
1001
0010
1100
,
0010
0110
0001
0110
1000
0011
0100
1001
,
0010
1100
0010
0101
1000
0011
0100
1001
,
0010
1100
0010
0110
0001
0101
0010
1001
,
0100
0110
0001
1010
0100
1001
0010
0110
,
0001
1100
0010
1100
0001
0110
0000
0011
,
0000
0000
0000
0000
1001
0000
0000
0000
0000
0000
0000
1000
0100
0010
1001
0100
0010
1001
0100
0010
0001
0000
0000
0000
0000
0000
0000
0000
1001
0000
0000
0000
,
0000
1001
0000
1001
0100
0010
0100
0010
,
0100
1010
0001
1000
0010
0110
0000
0110
,
0000
0110
0000
0100
0010
0001
0010
0100
,
0010
1100
0010
0100
1000
0001
0100
0010
,
1000
0100
0001
0010
0100
1000
0100
0001
,
0100
0010
1000
0100
0000
1100
0000
0000
,
0000
1001
0000
0110
0000
1100
0000
1010
,
0000
0101
0000
0110
0000
1000
0100
0010
,
0001
0100
0010
1000
0001
0010
0100
1000
,
0100
0011
0000
1000
0100
0001
0100
0010
,
1000
0010
0100
0010
0100
0010
1000
0100
,
0001
1010
0000
0100
0010
0001
0010
0100
,
1000
0010
0100
0001
0100
0010
1000
0010
,
0100
0001
0010
0100
0010
2002
0000
0000
,
3003
0000
0000
0100
0000
0010
0000
0001
,
0000
0000
1000
0100
0010
1001
0100
0010
1001
0100
0010
1001
0100
0010
0001
0000
0000
0000
0000
0000
1001
0000
0000
0000
0000
0000
0000
0000
0010
0000
0000
0000
,
1001
0000
0010
0100
0010
1001
0000
0100
,
1001
0000
0100
0010
0100
1001
0000
0100
,
1001
0000
0010
0001
0010
1001
0000
0100
,
1001
0000
1000
0100
0010
1001
0000
0010
,
1001
0000
0100
0010
1000
0101
0000
0100
,
1100
0000
0100
0010
1000
0110
0000
1000
,
0000
0110
0000
0110
0000
0110
0000
0110
,
0000
0000
0000
0000
0110
0000
0000
0000
0000
0000
1000
0100
0010
0001
0010
0100
1000
0000
0000
0000
0011
0000
0000
0000
0100
0000
0000
0000
0011
0000
0000
0000
,
1000
0011
0100
1010
0100
1100
0001
0110
,
0010
1100
0011
1100
0110
1001
0001
0101
,
0010
1100
0001
0110
0010
1001
0010
1001
,
0000
0101
1010
0101
1100
0011
0100
1001
,
0010
0110
1000
1100
0001
0101
0010
1001
,
0010
0110
1100
0011
1100
0110
1000
0011
,
0100
0110
1000
0011
0100
1001
0010
0100
,
1000
0110
1001
0110
1001
0110
1000
0100
,
0010
0001
0100
0010
1000
0001
0100
0010
,
1000
0010
0100
0010
1000
0001
0100
0010
,
1000
0001
0100
0010
1000
0001
0100
0001
,
0010
1000
0010
0100
0001
0100
0010
0100
,
1000
0010
0100
0001
0010
0100
0010
0001
,
1000
0010
0100
1000
0010
0100
0001
1000
,
0010
0100
0001
1000
0001
1000
0001
0100
,
0000
1000
0000
0100
0001
1001
0010
0100
,
0001
1000
0010
0100
0001
1000
0010
0100
,
0001
1000
0100
0001
0100
0010
1000
0100
,
0010
0001
0010
0100
0010
1000
0001
0100
,
0010
1000
0010
0100
0001
0010
0100
0010
,
1000
0010
0100
0001
0100
0010
1000
0010
,
0100
0001
0010
0100
1000
0010
0100
0010
,
0001
0010
0100
1000
0100
0010
0100
0001
,
0100
0010
1000
0100
0010
0001
0100
0010
,
1000
0010
0100
0001
0100
0010
0100
1000
,
0010
0100
0001
0010
1000
0010
0100
0001
,
0010
0100
1000
0010
0100
0001
0010
0100
,
1000
0100
0010
0001
0010
1000
0010
0100
,
0010
1000
0100
0001
0010
0100
0010
1000
,
0100
0010
0001
0010
0100
0001
1000
0010
,
0100
0010
0001
0100
0010
0001
1000
0100
0000
0000
0000
0000
0000
0000
0000
0000
,
0000
0000
0000
1010
0000
0101
0000
1000
,
0100
0010
0000
0001
0010
0000
1000
0000
,
0100
0010
0000
0110
0000
1010
0000
0100
,
0010
0001
0010
0100
0010
1000
0100
0000
,
0010
1000
0000
0010
0000
0100
0000
1000
,
0100
0010
0000
0001
0010
0000
1000
0000
,
0100
0010
0000
1000
0000
0002
0000
0000
,
0003
0200
0000
0000
0000
0302
0000
0000
,
0003
1001
0000
1001
0000
1001
0000
0011
,
0000
0101
0000
1001
0000
0100
0010
1000
,
0100
0010
0001
0100
0010
1010
0000
1001
,
0000
1010
0000
0101
0010
1100
0010
0101
,
0010
1100
0000
0000
0000
0110
0000
1100
,
0000
0101
0010
0100
1000
0100
0010
0100
,
0010
0001
0000
0000
0000
1001
0000
0110
,
0000
1001
0000
0010
0001
0010
0100
0001
,
0100
0010
0100
1000
0100
2002
0000
0000
,
3003
0000
0000
1001
0100
1010
0001
0110
,
0100
0011
1000
0110
0100
0011
1000
0110
,
0100
1001
0010
1100
0010
0110
0001
0110
,
0100
1001
0100
0110
0001
1010
0100
1001
,
0010
0110
0001
1010
0100
1001
0010
0110
,
0001
1010
0100
1001
0010
1100
0010
0110
,
1000
0011
0100
1010
1000
0110
0100
0001
,
0010
0100
1000
0010
0100
2002
0000
0000
,
0000
0000
3003
0000
0000
1001
0000
0000
,
1000
0100
0010
1001
0100
0010
1001
0100
0010
1001
0100
0010
1001
0100
0010
0001
0000
0000
0000
0000
1001
0000
0000
0000
0000
0000
0000
0000
0000
0000
0000
0000
,
1001
0000
0000
1001
0000
1001
0000
1001
,
1001
0000
0110
0110
0000
1001
0000
0000
,
1001
0000
0000
0110
0000
0110
0000
0110
,
0110
0000
1100
1100
0000
1001
0000
0000
,
1001
0000
0000
0011
0000
1100
0000
1010
,
0110
0000
0110
0101
0000
1001
0000
0000
,
1001
0000
0000
1001
0000
1001
0000
1010
,
0110
0000
0110
0101
0000
1001
0000
0000
,
1001
0000
0000
0011
0000
1100
0000
1010
,
0110
0000
0110
0101
0000
1100
0000
0000
,
1010
0000
0000
1001
0000
1010
0000
0011
,
0101
0000
0110
1100
0000
1010
0000
0000
,
0011
0000
0000
0101
0000
0101
0000
1100
,
1100
0000
0110
0110
0000
1001
0000
0000
,
1001
0000
0000
0011
0000
1001
0000
0110
,
1100
0000
1010
0110
0000
2002
0000
0000
,
0000
3003
0000
0000
0000
0000
0000
0000
;
